Le Petit Stargate

Ils peuvent nous ôter la vie... Mais ils ne nous ôteront jamais notre liberté. Tous les sites meurent un jour mais peu d'entre eux vivent vraiment. longue vie a toi Le Petit Stargate
 
AccueilFAQPortailCalendrierGalerieRechercherS'enregistrerConnexion
Avis A la population Stargateuse: Les téléchargements sont en cours de rétablissement sur différent hébergeurs, nous vous demandons donc un peu de patience, les premières saison de SG1 devrais voir le jour sous peu Wink Cordialement, ADMIN et toute l'équipe Petit-Stargate

Partagez | 
 

 Hebergement des Episode Stargate SG1 et Atlantis.

Voir le sujet précédent Voir le sujet suivant Aller en bas 
Aller à la page : 1, 2, 3, 4  Suivant
AuteurMessage
Admin
Commandant du USS Apollo
Commandant du USS Apollo
avatar

Masculin
Nombre de messages : 765
Age : 28
Localisation : SGC,Niveau 28,Burreau du Général
Compétence : 36
Date d'inscription : 26/05/2007

TEST
TEST: 50

MessageSujet: Hebergement des Episode Stargate SG1 et Atlantis.   Jeu 27 Déc - 19:37

Bonsoir,

Je vais Bientôt (et j'espère) Me lancer dans la mise en ligne des épisodes de SG1 et de Atlantis (A savoir que je dispose des dvd chez moi), je compte convertir les épisodes en fichier .AVI en format H264 AVC qui donne généralement une très bonne qualités même dans les images sombre ou noir sans avoir trop de pixel qui apparaissent. A aussi un meilleur respect des couleurs (ne les lave presque pas contrairement a Xvid et Divx)

je pense les Héberger sur des site de Multiupload, a commencer par http://www.jheberg.net/

Si vous avez d'autres Hebergeur autres que ceux Proposé par Jheberg ou un autre site efficace de Multiupload, faite le moi savoir.

Si vous avez des proposition de format vidéo qui ne lave pas les couleurs et autre que H264 faite le moi savoir aussi (a savoir que les épisodes convertit en H264/X264 en 2passe prennent énormément de temps, cela peut varier de quelques heures a une journée entière selon le fichier convertit.)

Salutation a toutes et a tous,

Admin

_________________
Revenir en haut Aller en bas
http://petit-stargate.boardsmessage.com
Admin
Commandant du USS Apollo
Commandant du USS Apollo
avatar

Masculin
Nombre de messages : 765
Age : 28
Localisation : SGC,Niveau 28,Burreau du Général
Compétence : 36
Date d'inscription : 26/05/2007

TEST
TEST: 50

MessageSujet: Re: Hebergement des Episode Stargate SG1 et Atlantis.   Jeu 27 Déc - 19:49

Ah, a savoir aussi que les épisodes risquent d’être en 2 partie (archive win rar (épisode 1 partie 1 et épisode 1 partie 2) vu que la plupart de ces hébergeur ont tendance a limiter la taille a 200Mo par fichiers. il faudra encore que je teste tout cela.

_________________
Revenir en haut Aller en bas
http://petit-stargate.boardsmessage.com
mario5102
Commandant du USS Prométhée
Commandant du USS Prométhée
avatar

Masculin
Nombre de messages : 1374
Age : 24
Localisation : Châlons en champagne
Compétence : 12
Date d'inscription : 15/11/2009

TEST
TEST: 50

MessageSujet: Re: Hebergement des Episode Stargate SG1 et Atlantis.   Jeu 27 Déc - 23:52

c'est pour telecharger ?

_________________
avec mes p\'tit enfa appel a tout les membre Je crééer un jeu de type RPG, je recherche certain poste donc si vous avez des connaissance ou que vous voulez juste aidé (quelque soi vos connaissance ) allez sur la page aimez la et mp la page avec mes p\'tit enfa

Revenir en haut Aller en bas
http://stargatesgatlantis.forumactif.com
Admin
Commandant du USS Apollo
Commandant du USS Apollo
avatar

Masculin
Nombre de messages : 765
Age : 28
Localisation : SGC,Niveau 28,Burreau du Général
Compétence : 36
Date d'inscription : 26/05/2007

TEST
TEST: 50

MessageSujet: Re: Hebergement des Episode Stargate SG1 et Atlantis.   Ven 28 Déc - 0:20

Ouais ca seras pour que vous téléchargiez, mais avant faut que je rip et que j'upload les épisodes sur le net.

Les fichiers font environs 380Mo par épisodes (a savoir qu'il seront séparé en 2 en archive win rar), je fais un essai de conversion en ce moment voire ce que cela donne.

_________________
Revenir en haut Aller en bas
http://petit-stargate.boardsmessage.com
Jack O'neill
Commendant du USS Daedalus
Commendant du USS Daedalus
avatar

Masculin
Nombre de messages : 3255
Age : 22
Localisation : Passerelle du USS Deadalus
Compétence : 10
Date d'inscription : 19/04/2009

TEST
TEST: 333

MessageSujet: Re: Hebergement des Episode Stargate SG1 et Atlantis.   Ven 28 Déc - 9:57

Pour le format des épisode je te propose du .mp4 c'est la grande mode en se moment il y a un meilleur rapport qualité taille

_________________
Colonel Jack O'neill
Nous abandonnons pas les notre.
Revenir en haut Aller en bas
http://www.petit-stargate.com/
Admin
Commandant du USS Apollo
Commandant du USS Apollo
avatar

Masculin
Nombre de messages : 765
Age : 28
Localisation : SGC,Niveau 28,Burreau du Général
Compétence : 36
Date d'inscription : 26/05/2007

TEST
TEST: 50

MessageSujet: Re: Hebergement des Episode Stargate SG1 et Atlantis.   Ven 28 Déc - 12:11

oui mais ca change pas le codec, .mp4, .avi, .mkv sont juste les conteneur des épisodes, après ya le codec (Divx, Xvid, H264, X264, etc...

Le soucis c'est que beaucoup de codec font perdre de la qualité a l'image, certains plus que d'autre, et certains délave aussi les couleurs (si on regarde l’original et la conversion on dirait que la vidéo de conversion a des couleurs trop claire.

La j'ai fini de convertir le fichier en AVI H264, c'est parfaitement lisible sur VLC et Divx Player

De plus le programme de RIPP me met le .MP4 dans la gamme de conversion pour appareil portable (X264 HP/PSP)

_________________
Revenir en haut Aller en bas
http://petit-stargate.boardsmessage.com
CCA
Sheriff du forum
Sheriff du forum


Nombre de messages : 1436
Compétence : 11
Date d'inscription : 12/11/2009

MessageSujet: Re: Hebergement des Episode Stargate SG1 et Atlantis.   Dim 30 Déc - 6:41

Tiens un revenant, bonjour Jack...

le conteneur AVI est plus pratique que le MKV ? Vu que de toute façon c'est du H264 comme codage.

Et tu met quoi comme résolution d'image ? (ce sera à préciser aussi lorsque tu fera le sujet, afin de savoir à l'avance )

Le souci pour les visionages, c'est pas tellement le visionnage sur un ordinateur, parce que des outils comme VLC accepte pratiquement tous les formats, même les bizarroides...

mais de savoir si c'est compatible avec sa TV, son disque dur multimédia, sa passerelle, son port USB sur appareil video pour lecture.

_________________
Stargate Universe - SGU  - Destiny - L'aventure continue
Revenir en haut Aller en bas
Jack O'neill
Commendant du USS Daedalus
Commendant du USS Daedalus
avatar

Masculin
Nombre de messages : 3255
Age : 22
Localisation : Passerelle du USS Deadalus
Compétence : 10
Date d'inscription : 19/04/2009

TEST
TEST: 333

MessageSujet: Re: Hebergement des Episode Stargate SG1 et Atlantis.   Dim 30 Déc - 11:18

Salut CCA

Je pense et sa engage que moi que le MP4 en H264 reste le meilleur compromis, justement pour la compatibilité avec plusieurs appareil et rapport taille qualité.

_________________
Colonel Jack O'neill
Nous abandonnons pas les notre.
Revenir en haut Aller en bas
http://www.petit-stargate.com/
CCA
Sheriff du forum
Sheriff du forum


Nombre de messages : 1436
Compétence : 11
Date d'inscription : 12/11/2009

MessageSujet: Re: Hebergement des Episode Stargate SG1 et Atlantis.   Dim 30 Déc - 19:06

sauf que pour le moment le container le plus reconnu, c'est le MKV, le MP4 est moins souvent reconnu, me semble t-il, parce que bien trop récent...


Y a beaucoup de mondes, avec des appareils qui pourront lire du MKV mais pas du MP4 !

_________________
Stargate Universe - SGU  - Destiny - L'aventure continue
Revenir en haut Aller en bas
Jack O'neill
Commendant du USS Daedalus
Commendant du USS Daedalus
avatar

Masculin
Nombre de messages : 3255
Age : 22
Localisation : Passerelle du USS Deadalus
Compétence : 10
Date d'inscription : 19/04/2009

TEST
TEST: 333

MessageSujet: Re: Hebergement des Episode Stargate SG1 et Atlantis.   Dim 30 Déc - 22:47

C'est possible moi même sa fait pas longtemps que j'ai entendu parlé du mp4 en bien

_________________
Colonel Jack O'neill
Nous abandonnons pas les notre.
Revenir en haut Aller en bas
http://www.petit-stargate.com/
Admin
Commandant du USS Apollo
Commandant du USS Apollo
avatar

Masculin
Nombre de messages : 765
Age : 28
Localisation : SGC,Niveau 28,Burreau du Général
Compétence : 36
Date d'inscription : 26/05/2007

TEST
TEST: 50

MessageSujet: Re: Hebergement des Episode Stargate SG1 et Atlantis.   Lun 31 Déc - 22:53

Le problème c'est que en .MP4 je peut pas mettre en H264 mais seulement en X264 HP/PSP (a savoir que je n'ai aucun contrôle sur ce codec ci, donc du coup je pense pas que ca soit une bonne idée de l'utiliser.)

en X264 j'ai en .AVI seulement.

Sinon ya X264 en .MKV.

Après je peut faire un X264 en .Mp4 mais faut que je convertisse le fichier une première fois pour ensuite le reconvertir en .Mp4, du coup ca vaux pas la peine, 2 compression ca va perdre en qualité et faire perdre beaucoup de temps

Je peut donc vous proposer en ripage 2 passe sans devoir convertir 2x la même vidéo, Divx en .Avi, .Mkv,
X264/H264 AVC en .AVI ou .MkV, Xvid en .Avi et .Mkv

Pour ce qui est de la résolution je ne l'ai pas modifié, cela reste celle du DVD de la série.

_________________
Revenir en haut Aller en bas
http://petit-stargate.boardsmessage.com
CCA
Sheriff du forum
Sheriff du forum


Nombre de messages : 1436
Compétence : 11
Date d'inscription : 12/11/2009

MessageSujet: Re: Hebergement des Episode Stargate SG1 et Atlantis.   Mer 2 Jan - 18:39

Oui mais c'est quoi la résolution sur DVD ?? 1280i ? 1080i ? 720p ?

en version une seule langue (français), avoir un codec xvid en container .MKV, cela ne me semble pas utile. Le MKV va juste permettre le chapitrage en plus.

En version multilangue, le container .MKV peut se justifier.

Mais la version la plus basique pour tous, c'est container .AVI, codec xvid

Pour le SON : Plutot qu'avoir un basique codec MP3, permettant le son stéréo uniquement, c'est sympa d'avoir un son en 5.1, en utilisant le codec AC3. Le codec AC3 permet le son en simple stéréo mais aussi de garder le son en 5.1 (qui est aussi le dolby stéréo)

Celui pour qui, le son en 5.1 poserait probléme, pourra facilement et rapidement, convertir le son AC3 5.1, en son stéréo (MP3 ou AC3 par exemple), sans rien dégrader à l'image.


Tu va utiliser quoi pour faire ton rip ?? N'utilise pas de contrainte de taille en Mo/Go.

_________________
Stargate Universe - SGU  - Destiny - L'aventure continue
Revenir en haut Aller en bas
Jack O'neill
Commendant du USS Daedalus
Commendant du USS Daedalus
avatar

Masculin
Nombre de messages : 3255
Age : 22
Localisation : Passerelle du USS Deadalus
Compétence : 10
Date d'inscription : 19/04/2009

TEST
TEST: 333

MessageSujet: Re: Hebergement des Episode Stargate SG1 et Atlantis.   Mer 2 Jan - 19:31

admin tu utilise quoi pour convertir

parce que "format factory" me le propose en .mp4 H264

_________________
Colonel Jack O'neill
Nous abandonnons pas les notre.
Revenir en haut Aller en bas
http://www.petit-stargate.com/
Admin
Commandant du USS Apollo
Commandant du USS Apollo
avatar

Masculin
Nombre de messages : 765
Age : 28
Localisation : SGC,Niveau 28,Burreau du Général
Compétence : 36
Date d'inscription : 26/05/2007

TEST
TEST: 50

MessageSujet: Re: Hebergement des Episode Stargate SG1 et Atlantis.   Mer 2 Jan - 21:55

Oui mais des fois c pas génial, moi je convertit avec Ripit4am

L'avantage de ce programme c'est qu'il travaille avec une base de VirtualDub, du coup ca convertit bien, j'utilise aussi Format factory mais moins pour ce genre de vidéo rippé, Format factory ne laisse pas toucher a toute les options du codec il me semble

Je pense que si Ripit4am bloque le Mp4 a a création d'un rip d'épisodes, je pense que cela doit avoir un impact sur la qualités ou sur la compatibilité (problème ou erreur dans la conversion.) a savoir aussi que format factory oblige le format audio en AAC si le fichier de sortie est en .mp4, donc en .mp4 faut oublier le .mp3 et si votre appareil ne lit pas le AAC, ben ca fonctionneras pas en lecture.

Ce que je propose, c'est que je vai faire un fichier en .mp4 h264 et un fichier avi.h264 et celui qui marche le mieux seras pris.

EDIT:

J'ai essayer de convertir un des épisode du dvd et ca me dit error 0X1 fonction incorrecte.

EDIT2: ben faudras vous passer du .Mp4, impossible de convertir avec format factory (même dans d'autre format, toujours la même erreur, par contre Ripit4am ne m'as pas posé de problème a ce niveau la.)

EDIT3: je viens de regarder pas mal des fichiers de film Rippé que j'ai téléchargé, la plus grande partie sont repartie en 3 groupe, les fichier .mkv h264, les .avi en format h264, avi en format divx mpeg4, mais je n'ai jamais eu de fichiers en format .MP4 dans les téléchargement de film, il y en as bien quelques uns pour les Mangas et anime effectivement, mais pour les film c'est très rare d'en trouver dans ce format. je pense que convertir un film en format standard et .mp est possible mais peut etre pas en rippant le film (paramètre qui ne passent pas).

A savoir aussi que j'ai eu l’expérience de conversion en H264/X264 avec Format factory et d'autre convertisseur et cela donne des saccades dans la vidéo, par contre avec virtual dub et donc avec ripit4am il n'y en as pas (vu que ripit4am utilise une base de virtualdub MOD pour convertir)

Donc je vous propose du Divx en .Avi ou .Mkv, du Xvid en .Avi ou .Mkv, ou encore le H264/X264 en :Avi ou .Mkv, C'est tout les format supporté que je peut faire et qui fonctionne, pour le son c'est généralement du .mp3 (je peut aussi mettre du AAc ou du OGG si jamais)

_________________
Revenir en haut Aller en bas
http://petit-stargate.boardsmessage.com
CCA
Sheriff du forum
Sheriff du forum


Nombre de messages : 1436
Compétence : 11
Date d'inscription : 12/11/2009

MessageSujet: Re: Hebergement des Episode Stargate SG1 et Atlantis.   Jeu 3 Jan - 22:59

Tu devrais pouvoir avoir, avec une base virtualdub, du son en AC3 (5.1 ou stéréo), le AAC tous les matériels ne savent pas les lire.

Et une video, avec un son 5.1, c'est plutot super agréable. Very Happy


tu as plusieurs pistes son sur le DVD, déjà parce que plusieurs langues. Si y a une piste marqué 5.1 ou Dolby, en prenant cette piste là, cela devrait conserver le son en 5.1, tel qu'il est sur le DVD.

le format AAC permet le 5.1 ?? ou c'est juste du stéréo ?

_________________
Stargate Universe - SGU  - Destiny - L'aventure continue
Revenir en haut Aller en bas
Admin
Commandant du USS Apollo
Commandant du USS Apollo
avatar

Masculin
Nombre de messages : 765
Age : 28
Localisation : SGC,Niveau 28,Burreau du Général
Compétence : 36
Date d'inscription : 26/05/2007

TEST
TEST: 50

MessageSujet: Re: Hebergement des Episode Stargate SG1 et Atlantis.   Ven 4 Jan - 1:46

La je peut pas te dire car je suis pas sur le bon pc mais dans les paramètre de ripage de Ripit4am ya une case dans option du son ou c'est marqué 5.1, alors si le son du dvd est en 5.1 je pense que cela est possible. pour le son alors on mettras du .mp3 vu que AAC non supporté (AAC-Ra10) sinon, moi pour palier a ce problème, j'ai commandé ceci:
http://www.aliexpress.com/item/1080P-Thin-client-1-6G-Dual-core-cpu-2G-RAM-8G-SSD-wireless-supported-HDMI-DVI/610403425.html

Un mini desktop avec une carte ATI HD, port HDMI VGA et DVI support lecture vidéo 1080p, etc... et vu que c'est un pc, ben ca lit n'importe quoi du moment que les bon codecs sont dessus, et ca coute pas plus cher qu'un appareil de salon (voire moins cher)

EDIT, J'ai pas vu mais dans la convertion on peut aussi cocher Original, donc ca laisse a supposer qu'il va garder le format audio du dvd (qui est du AC3)
J'ai separé l'audio de la vidéo:

Code:
Complete name                            : C:\VIDEO_TS\audio0.ac3
Format                                  : AC-3
Format/Info                              : Audio Coding 3
File size                                : 68.0 MiB
Duration                                : 42mn 24s
Overall bit rate mode                    : Constant
Overall bit rate                        : 224 Kbps

Audio
Format                                  : AC-3
Format/Info                              : Audio Coding 3
Format profile                          : Dolby Digital
Mode extension                          : CM (complete main)
Format settings, Endianness              : Big
Duration                                : 42mn 24s
Bit rate mode                            : Constant
Bit rate                                : 224 Kbps
Channel(s)                              : 2 channels
Channel positions                        : Front: L R
Sampling rate                            : 48.0 KHz
Bit depth                                : 16 bits
Compression mode                        : Lossy
Stream size                              : 68.0 MiB (100%)

Comme on peut le voire, pas de 5.1 sur les épisodes de sg1, c'est les premiers épisodes, peut être que dans les saison 5-10 c'est en 5.1, faudra voire.

_________________
Revenir en haut Aller en bas
http://petit-stargate.boardsmessage.com
CCA
Sheriff du forum
Sheriff du forum


Nombre de messages : 1436
Compétence : 11
Date d'inscription : 12/11/2009

MessageSujet: Re: Hebergement des Episode Stargate SG1 et Atlantis.   Ven 4 Jan - 17:47

Ah oui, 2 channels L et R, c'est pas du 5.1, mais c'est mieux de mettre quand même en codec AC3 (le codec MP3 est un format propriétaire, ne permettant que le stéréo)

en 5.1, on voit 6 channels, et ensuite il est inscrit un truc du genre L,C,R, RL, RR, et je ne sais plus quoi comme code lettres pour le caisson de basse.

Alors oui de mémoire sur les derniéres saisons SG1, les DVD devraient etre en Dolby 5.1
(pour SGU c'est en 5.1 sur les DVD)

_________________
Stargate Universe - SGU  - Destiny - L'aventure continue
Revenir en haut Aller en bas
Admin
Commandant du USS Apollo
Commandant du USS Apollo
avatar

Masculin
Nombre de messages : 765
Age : 28
Localisation : SGC,Niveau 28,Burreau du Général
Compétence : 36
Date d'inscription : 26/05/2007

TEST
TEST: 50

MessageSujet: Re: Hebergement des Episode Stargate SG1 et Atlantis.   Ven 4 Jan - 18:45

ok, ca joue, pour l'audio je balance ca en cochant "Original" ca garderas le même format que sur le dvd. Pour la vidéo, on la balance en .AVI H264 alors du coup? ou un autre format (ceux qui j'ai cité plus haut)

_________________
Revenir en haut Aller en bas
http://petit-stargate.boardsmessage.com
CCA
Sheriff du forum
Sheriff du forum


Nombre de messages : 1436
Compétence : 11
Date d'inscription : 12/11/2009

MessageSujet: Re: Hebergement des Episode Stargate SG1 et Atlantis.   Ven 4 Jan - 23:31

Si tu peux, tu fais une version en codec H264, et une autre en codec xvid.

container AVI pour le xvid, container MKV pour le H264 c'est ce que je te conseille.
(et si tu ne peux pas faire de MKV avec le H264 alors fais le en container AVI aussi)

_________________
Stargate Universe - SGU  - Destiny - L'aventure continue
Revenir en haut Aller en bas
Admin
Commandant du USS Apollo
Commandant du USS Apollo
avatar

Masculin
Nombre de messages : 765
Age : 28
Localisation : SGC,Niveau 28,Burreau du Général
Compétence : 36
Date d'inscription : 26/05/2007

TEST
TEST: 50

MessageSujet: Re: Hebergement des Episode Stargate SG1 et Atlantis.   Ven 4 Jan - 23:34

Pas de soucis, je peut en .MKV a moins que ca plante pendant la conversion, par contre ca va prendre pas ma de temps de tout faire vu que je dois créer 2 copie de chaque épisodes ^^

Pour ce qui est de la vidéo, je vais activer le filtre de dés entrelacement, car je crains que il risque d'y avoir de l'entrelacement (pas sur)

EDIT:

Code:
Scan type                                : Interlaced
Scan order                              : Top Field First

Donc dans le filtre je marquerai Garder Top Field uniquement vu que c entrelacé (corrigez moi si je me trompe), si je dés entrelace pas on auras droit a de jolies lignes lors des mouvement.

_________________
Revenir en haut Aller en bas
http://petit-stargate.boardsmessage.com
CCA
Sheriff du forum
Sheriff du forum


Nombre de messages : 1436
Compétence : 11
Date d'inscription : 12/11/2009

MessageSujet: Re: Hebergement des Episode Stargate SG1 et Atlantis.   Sam 5 Jan - 22:59

oui c'est préférable de désentrelacer.

En fait l'histoire de "entrelacé" ou "non entrelacé", cela vient du fait que les images sur une TV, sont présentés sous forme de 2 trames (ligne paire puis ligne impaire) à la fréquence de 50 Hz (courant 220 français, norme PAL ou SECAM) ou 60 Hz (Norme NTSC pour le courant aux USA ). La superposition des 2 trames, recompose l'image entiére (au lieu de 2 demi-image), du fait de la persistance rétiniéne d'une image. (notre cerveau fait la superposition des 2 demi-images).

sur un ordinateur, les images sont affichées en une seule fois (et non pas 2 demi-images). Autrement dit l'ordinateur ne fait pas de l'entrelacé pour afficher une image. L'entrelacé ce sont les TV seulement.

Par contre, je ne connais pas l'option dans ton logiciel, que tu va devoir prendre. Mais oui, fait ta création de fichiers (Ton rip) sous forme "désentrelacé" !



_________________
Stargate Universe - SGU  - Destiny - L'aventure continue
Revenir en haut Aller en bas
Admin
Commandant du USS Apollo
Commandant du USS Apollo
avatar

Masculin
Nombre de messages : 765
Age : 28
Localisation : SGC,Niveau 28,Burreau du Général
Compétence : 36
Date d'inscription : 26/05/2007

TEST
TEST: 50

MessageSujet: Re: Hebergement des Episode Stargate SG1 et Atlantis.   Dim 6 Jan - 3:04

si je connaissait déjà ce qu’était l'entrelacement, mais je demandais juste si le mode de dés entrelacement était le bon (oui yen as plusieurs, des truc comme top field firs, , right image first ou des truc du genre.)

_________________
Revenir en haut Aller en bas
http://petit-stargate.boardsmessage.com
CCA
Sheriff du forum
Sheriff du forum


Nombre de messages : 1436
Compétence : 11
Date d'inscription : 12/11/2009

MessageSujet: Re: Hebergement des Episode Stargate SG1 et Atlantis.   Dim 6 Jan - 23:03

image droite en premier, c'est un mode entrelacé ça, par contre.

Donc si y a pas "NO" sur l'option entrelacement, il faut trouver l'option qui correspond, à ne pas faire d'entrelacement de l'image.


logiquement tout ce qui est avec "first", indique un entrelacement.
tout ce qui est avec un mot comme paire / impaire aussi, tout ce qui fait référence à droite/gauche également.


_________________
Stargate Universe - SGU  - Destiny - L'aventure continue
Revenir en haut Aller en bas
Admin
Commandant du USS Apollo
Commandant du USS Apollo
avatar

Masculin
Nombre de messages : 765
Age : 28
Localisation : SGC,Niveau 28,Burreau du Général
Compétence : 36
Date d'inscription : 26/05/2007

TEST
TEST: 50

MessageSujet: Re: Hebergement des Episode Stargate SG1 et Atlantis.   Lun 7 Jan - 15:15

Au vu de soucis technique du type plantage sur le programme quand j'ouvre la fenêtre de prévisualisation, je vais devoir passer pour l'instant que en AVI en format Xvid, Extraction avec DVDSHRINK suivi de conversion avec VirtualDub (virtualdub ne convertissant pas l'audio, il resteras en AC3 comme convenu) Pour le H264 pour l'instant, il est que possible en .AVI (Virtualdub ne peut pas faire d'autre conteneur que .AVI)

Conversion avec dés-entrelacement vu que Virtualdub comporte divers filtres vidéo

_________________
Revenir en haut Aller en bas
http://petit-stargate.boardsmessage.com
Admin
Commandant du USS Apollo
Commandant du USS Apollo
avatar

Masculin
Nombre de messages : 765
Age : 28
Localisation : SGC,Niveau 28,Burreau du Général
Compétence : 36
Date d'inscription : 26/05/2007

TEST
TEST: 50

MessageSujet: Re: Hebergement des Episode Stargate SG1 et Atlantis.   Lun 7 Jan - 18:34

J'ai effectué des test de compression, voici l'image et la configuration du codecs en dessous:

On dis dans plein de forum d'activer le quarter pixel, de mettre VHQ MOD au maximum et Motion search precision sur 6 mais bizarrement, eux disent que ca augmente la qualité mais sur les épisode SG1 ca donne le contraire:

Sans les Paramètre quarter Pixel VHQ MODE et Motion search precision:

Media Info:
Code:

General
Complete name                            : G:\Stargate SG1 Saison 1 épisode 3 L’Ennemi intérieur.avi
Format                                  : AVI
Format/Info                              : Audio Video Interleave
File size                                : 380 MiB
Duration                                : 42mn 24s
Overall bit rate                        : 1 252 Kbps
Writing application                      : VirtualDubMod 1.5.10.2 Fr | www.trad-fr.com ||  (build 2540/release)
Writing library                          : VirtualDubMod build 2540/release

Video
ID                                      : 0
Format                                  : MPEG-4 Visual
Format profile                          : Advanced Simple@L5
Format settings, BVOP                    : 2
Format settings, QPel                    : No
Format settings, GMC                    : No warppoints
Format settings, Matrix                  : Default (H.263)
Muxing mode                              : Packed bitstream
Codec ID                                : XVID
Codec ID/Hint                            : XviD
Duration                                : 42mn 24s
Bit rate                                : 1 018 Kbps
Width                                    : 720 pixels
Height                                  : 576 pixels
Display aspect ratio                    : 16:9
Frame rate                              : 25.000 fps
Standard                                : PAL
Color space                              : YUV
Chroma subsampling                      : 4:2:0
Bit depth                                : 8 bits
Scan type                                : Progressive
Compression mode                        : Lossy
Bits/(Pixel*Frame)                      : 0.098
Stream size                              : 309 MiB (81%)
Writing library                          : XviD 1.2.1 (UTC 2008-12-04)

Audio
ID                                      : 1
Format                                  : AC-3
Format/Info                              : Audio Coding 3
Format profile                          : Dolby Digital
Mode extension                          : CM (complete main)
Codec ID                                : 2000
Duration                                : 42mn 24s
Bit rate mode                            : Constant
Bit rate                                : 224 Kbps
Channel(s)                              : 2 channels
Channel positions                        : Front: L R
Sampling rate                            : 48.0 KHz
Bit depth                                : 16 bits
Compression mode                        : Lossy
Stream size                              : 68.0 MiB (18%)
Alignment                                : Aligned on interleaves
Interleave, duration                    : 40 ms (1.00 video frame)
Interleave, preload duration            : 512 ms

Avec les paramètre supplémentaires "Censé donner une meilleure qualités" comme disent tout les forum de RIP:


Media Info:
Code:

General
Complete name                            : G:\testok.avi
Format                                  : AVI
Format/Info                              : Audio Video Interleave
File size                                : 380 MiB
Duration                                : 42mn 24s
Overall bit rate                        : 1 252 Kbps
Writing application                      : VirtualDubMod 1.5.10.2 Fr | www.trad-fr.com ||  (build 2540/release)
Writing library                          : VirtualDubMod build 2540/release

Video
ID                                      : 0
Format                                  : MPEG-4 Visual
Format profile                          : Advanced Simple@L5
Format settings, BVOP                    : 2
Format settings, QPel                    : Yes
Format settings, GMC                    : No warppoints
Format settings, Matrix                  : Default (H.263)
Muxing mode                              : Packed bitstream
Codec ID                                : XVID
Codec ID/Hint                            : XviD
Duration                                : 42mn 24s
Bit rate                                : 1 018 Kbps
Width                                    : 720 pixels
Height                                  : 576 pixels
Display aspect ratio                    : 16:9
Frame rate                              : 25.000 fps
Standard                                : PAL
Color space                              : YUV
Chroma subsampling                      : 4:2:0
Bit depth                                : 8 bits
Scan type                                : Progressive
Compression mode                        : Lossy
Bits/(Pixel*Frame)                      : 0.098
Stream size                              : 309 MiB (81%)
Writing library                          : XviD 64

Audio
ID                                      : 1
Format                                  : AC-3
Format/Info                              : Audio Coding 3
Format profile                          : Dolby Digital
Mode extension                          : CM (complete main)
Codec ID                                : 2000
Duration                                : 42mn 24s
Bit rate mode                            : Constant
Bit rate                                : 224 Kbps
Channel(s)                              : 2 channels
Channel positions                        : Front: L R
Sampling rate                            : 48.0 KHz
Bit depth                                : 16 bits
Compression mode                        : Lossy
Stream size                              : 68.0 MiB (18%)
Alignment                                : Aligned on interleaves
Interleave, duration                    : 40 ms (1.00 video frame)
Interleave, preload duration            : 512 ms

je pense laisser les option avancé par défaut comme a la première vidéo (ceci étant pour le format Xvid)

Et si l'un d'entre vous s'y connais vraiment bien en codec Xvid et ses réglage afin d'augmenter la qualité et non de la pourrir alors que c'était censé l'augmenté, qu'il me le dise

_________________
Revenir en haut Aller en bas
http://petit-stargate.boardsmessage.com
Contenu sponsorisé




MessageSujet: Re: Hebergement des Episode Stargate SG1 et Atlantis.   

Revenir en haut Aller en bas
 
Hebergement des Episode Stargate SG1 et Atlantis.
Voir le sujet précédent Voir le sujet suivant Revenir en haut 
Page 1 sur 4Aller à la page : 1, 2, 3, 4  Suivant
 Sujets similaires
-
» Stargate Atlantis - Divers montages - John/ Rodney - G
» Stargate et Stragate Atlantis
» COSTUME STARGATE SG-1
» le vaisseau prométhé stargate
» Tu n'es plus là (SGA)

Permission de ce forum:Vous ne pouvez pas répondre aux sujets dans ce forum
Le Petit Stargate :: les news du forum :: les news-
Sauter vers: