Le Petit Stargate

Ils peuvent nous ôter la vie... Mais ils ne nous ôteront jamais notre liberté. Tous les sites meurent un jour mais peu d'entre eux vivent vraiment. longue vie a toi Le Petit Stargate
 
AccueilFAQPortailCalendrierGalerieRechercherS'enregistrerConnexion
Avis A la population Stargateuse: Les téléchargements sont en cours de rétablissement sur différent hébergeurs, nous vous demandons donc un peu de patience, les premières saison de SG1 devrais voir le jour sous peu Wink Cordialement, ADMIN et toute l'équipe Petit-Stargate

Partagez | 
 

 Hebergement des Episode Stargate SG1 et Atlantis.

Voir le sujet précédent Voir le sujet suivant Aller en bas 
Aller à la page : Précédent  1, 2, 3, 4  Suivant
AuteurMessage
Admin
Commandant du USS Apollo
Commandant du USS Apollo


Nombre de messages : 765
Date d'inscription : 26/05/2007

TEST
TEST: 50

MessageSujet: Re: Hebergement des Episode Stargate SG1 et Atlantis.   Lun 7 Jan - 18:34

J'ai effectué des test de compression, voici l'image et la configuration du codecs en dessous:

On dis dans plein de forum d'activer le quarter pixel, de mettre VHQ MOD au maximum et Motion search precision sur 6 mais bizarrement, eux disent que ca augmente la qualité mais sur les épisode SG1 ca donne le contraire:

Sans les Paramètre quarter Pixel VHQ MODE et Motion search precision:

Media Info:
Code:

General
Complete name                            : G:\Stargate SG1 Saison 1 épisode 3 L’Ennemi intérieur.avi
Format                                  : AVI
Format/Info                              : Audio Video Interleave
File size                                : 380 MiB
Duration                                : 42mn 24s
Overall bit rate                        : 1 252 Kbps
Writing application                      : VirtualDubMod 1.5.10.2 Fr | www.trad-fr.com ||  (build 2540/release)
Writing library                          : VirtualDubMod build 2540/release

Video
ID                                      : 0
Format                                  : MPEG-4 Visual
Format profile                          : Advanced Simple@L5
Format settings, BVOP                    : 2
Format settings, QPel                    : No
Format settings, GMC                    : No warppoints
Format settings, Matrix                  : Default (H.263)
Muxing mode                              : Packed bitstream
Codec ID                                : XVID
Codec ID/Hint                            : XviD
Duration                                : 42mn 24s
Bit rate                                : 1 018 Kbps
Width                                    : 720 pixels
Height                                  : 576 pixels
Display aspect ratio                    : 16:9
Frame rate                              : 25.000 fps
Standard                                : PAL
Color space                              : YUV
Chroma subsampling                      : 4:2:0
Bit depth                                : 8 bits
Scan type                                : Progressive
Compression mode                        : Lossy
Bits/(Pixel*Frame)                      : 0.098
Stream size                              : 309 MiB (81%)
Writing library                          : XviD 1.2.1 (UTC 2008-12-04)

Audio
ID                                      : 1
Format                                  : AC-3
Format/Info                              : Audio Coding 3
Format profile                          : Dolby Digital
Mode extension                          : CM (complete main)
Codec ID                                : 2000
Duration                                : 42mn 24s
Bit rate mode                            : Constant
Bit rate                                : 224 Kbps
Channel(s)                              : 2 channels
Channel positions                        : Front: L R
Sampling rate                            : 48.0 KHz
Bit depth                                : 16 bits
Compression mode                        : Lossy
Stream size                              : 68.0 MiB (18%)
Alignment                                : Aligned on interleaves
Interleave, duration                    : 40 ms (1.00 video frame)
Interleave, preload duration            : 512 ms

Avec les paramètre supplémentaires "Censé donner une meilleure qualités" comme disent tout les forum de RIP:


Media Info:
Code:

General
Complete name                            : G:\testok.avi
Format                                  : AVI
Format/Info                              : Audio Video Interleave
File size                                : 380 MiB
Duration                                : 42mn 24s
Overall bit rate                        : 1 252 Kbps
Writing application                      : VirtualDubMod 1.5.10.2 Fr | www.trad-fr.com ||  (build 2540/release)
Writing library                          : VirtualDubMod build 2540/release

Video
ID                                      : 0
Format                                  : MPEG-4 Visual
Format profile                          : Advanced Simple@L5
Format settings, BVOP                    : 2
Format settings, QPel                    : Yes
Format settings, GMC                    : No warppoints
Format settings, Matrix                  : Default (H.263)
Muxing mode                              : Packed bitstream
Codec ID                                : XVID
Codec ID/Hint                            : XviD
Duration                                : 42mn 24s
Bit rate                                : 1 018 Kbps
Width                                    : 720 pixels
Height                                  : 576 pixels
Display aspect ratio                    : 16:9
Frame rate                              : 25.000 fps
Standard                                : PAL
Color space                              : YUV
Chroma subsampling                      : 4:2:0
Bit depth                                : 8 bits
Scan type                                : Progressive
Compression mode                        : Lossy
Bits/(Pixel*Frame)                      : 0.098
Stream size                              : 309 MiB (81%)
Writing library                          : XviD 64

Audio
ID                                      : 1
Format                                  : AC-3
Format/Info                              : Audio Coding 3
Format profile                          : Dolby Digital
Mode extension                          : CM (complete main)
Codec ID                                : 2000
Duration                                : 42mn 24s
Bit rate mode                            : Constant
Bit rate                                : 224 Kbps
Channel(s)                              : 2 channels
Channel positions                        : Front: L R
Sampling rate                            : 48.0 KHz
Bit depth                                : 16 bits
Compression mode                        : Lossy
Stream size                              : 68.0 MiB (18%)
Alignment                                : Aligned on interleaves
Interleave, duration                    : 40 ms (1.00 video frame)
Interleave, preload duration            : 512 ms

je pense laisser les option avancé par défaut comme a la première vidéo (ceci étant pour le format Xvid)

Et si l'un d'entre vous s'y connais vraiment bien en codec Xvid et ses réglage afin d'augmenter la qualité et non de la pourrir alors que c'était censé l'augmenté, qu'il me le dise
Revenir en haut Aller en bas
http://petit-stargate.boardsmessage.com
CCA
Sheriff du forum
Sheriff du forum


Nombre de messages : 1437
Compétence : 11
Date d'inscription : 12/11/2009

MessageSujet: Re: Hebergement des Episode Stargate SG1 et Atlantis.   Lun 7 Jan - 20:36

Je ne connais pas le paramétrage avec virtualdub, désolé.

Mais afin de te permettre de faire les formats voulus, je te suggére d'utiliser AVIDEMUX, qui est un logiciel gratuit lui aussi.

Et en plus tu as un forum Avidemux, en anglais ou en français, pour te faire aider en cas de soucis. Et tu devrais trouver également des informations de réglages sur Avidemux deci-delà, ou alors laisser les paramétres par défaut.

Avidemux me semble bien pratique, je l'utilise de temps en temps pour convertir d'un format à un autre par exemple.

et en plus, je pense qu'il digére direct un format ISO ou un format en morceau de fichiers .VOB



Sinon si c'est juste le monitoring qui fait le plantage, avec virtualdub, tu as la possibilité de ne pas faire de prévisualisation ni de l'entrée ni de la sortie.

_________________
Stargate Universe - SGU  - Destiny - L'aventure continue
Revenir en haut Aller en bas
Admin
Commandant du USS Apollo
Commandant du USS Apollo
avatar

Masculin
Nombre de messages : 765
Age : 28
Localisation : SGC,Niveau 28,Burreau du Général
Compétence : 36
Date d'inscription : 26/05/2007

TEST
TEST: 50

MessageSujet: Re: Hebergement des Episode Stargate SG1 et Atlantis.   Lun 7 Jan - 21:12

Citation :
Je ne connais pas le paramétrage avec virtualdub, désolé.

en fait c'est pas les réglage de virtualdub mais la fenêtre de réglage du codec lui même.

D’ailleurs Xvid a plutôt l'air de me faire de la merde, j'ai essayé une nouvelle conversion et sa sort une image complètement pixelisé, je crois que je vai y aller sur du .Mkv H264 vu que au moins lui il m'emmerde pas comme codec.

VirtualDub supporte le .VOB, j'ai extrait avec DVDshrink sans utiliser de compression et je l'ai placé directement sur virtualDub

L'avantage de virtualDub es aussi qu'il dispose d'une interface entrée et sortie vidéo, quand on convertit ou lit la vidéo dans le convertisseur avec filtre et codecs configurer cela permet de voir la vidéo avant filtres et après les filtres. on peut donc faire la différence entre les avec ou sans le filtre par exemple. il existe aussi une infinité de filtre pour ce programme, bien que supportant pas énormément de format, il convertit bien.

_________________
Revenir en haut Aller en bas
http://petit-stargate.boardsmessage.com
CCA
Sheriff du forum
Sheriff du forum


Nombre de messages : 1437
Compétence : 11
Date d'inscription : 12/11/2009

MessageSujet: Re: Hebergement des Episode Stargate SG1 et Atlantis.   Lun 7 Jan - 21:17

Tu peux avoir la même chose, ton avant / aprés, plus de codec et plus de réglages éventuellement sur Avidemux,

et donc des filtres également, filtres sur video. Mais aussi mixage son.

Si je te propose AVIDEMUX c'est parce qu'il est plus simple, à mon avis à prendre en mains. J'ai testé les 2, et avec VirtualDub, je le trouve plus difficile à utiliser.

_________________
Stargate Universe - SGU  - Destiny - L'aventure continue
Revenir en haut Aller en bas
Admin
Commandant du USS Apollo
Commandant du USS Apollo
avatar

Masculin
Nombre de messages : 765
Age : 28
Localisation : SGC,Niveau 28,Burreau du Général
Compétence : 36
Date d'inscription : 26/05/2007

TEST
TEST: 50

MessageSujet: Re: Hebergement des Episode Stargate SG1 et Atlantis.   Lun 7 Jan - 21:23

moi pas, j'y suis bien habitué, et ya plusieurs version, moi j'ai celle qui est fournis avec Ripit4am qui est virtualdubMOD une version spéciale MPEG.

Je choisit juste le codec, je le configure, je choisis le filtre et j'ai plus qu'as lancer la conversion, généralement je passe par Ripit4am mais la il n'aime pas trop alors je passe directement avec virtualDub.

D’ailleurs les 2 programmes les plus utilisé me semble il sont VirtualDub et Avidemux donc les 2 programme sont bons, mais je suis plus habitué a VirtualDub.

EDIT:

J'ai aussi regardé, en fait on dit que c'est passablement les même programme niveau fonction, simplement que AVIDEMUX supporte un peu plus de container que VirtualDub mais sinon ils ont quasiment les même fonctions et que AVIDEMUX a une interface plus intuitive pour les débutant.

_________________
Revenir en haut Aller en bas
http://petit-stargate.boardsmessage.com
CCA
Sheriff du forum
Sheriff du forum


Nombre de messages : 1437
Compétence : 11
Date d'inscription : 12/11/2009

MessageSujet: Re: Hebergement des Episode Stargate SG1 et Atlantis.   Lun 7 Jan - 21:37

Ok comme tu veux. Perso, avant j'utilisais QMC (pour convertir), puis j'ai utilisé avidemux 2.5 et avidemux 2.6, (pus de réglages moins de plantages) et de temps en temps quand y a un truc qui marche pas avec l'un, j'essaye avec un autre. Et puis quand aucun de ceux-là ne marchent, (plantage) alors j'essaye avec virtualDubMod.

_________________
Stargate Universe - SGU  - Destiny - L'aventure continue
Revenir en haut Aller en bas
Admin
Commandant du USS Apollo
Commandant du USS Apollo
avatar

Masculin
Nombre de messages : 765
Age : 28
Localisation : SGC,Niveau 28,Burreau du Général
Compétence : 36
Date d'inscription : 26/05/2007

TEST
TEST: 50

MessageSujet: Re: Hebergement des Episode Stargate SG1 et Atlantis.   Lun 7 Jan - 21:46

Si jamais virtualdub standard ne supporte pas les .vob, il faut virtualdubmod qui lui est fait pour supporter les vidéo Mpeg, sinon télécharge Ripit4am qui est assez bien comme convertisseur en plus comme j'ai dit il fonctionne sur une base de virtualdubmod pour la conversion, en gros il compile tout les réglage qui se font facilement sur ce programme et envoie tout a virtualdub (enfin je pense)

_________________
Revenir en haut Aller en bas
http://petit-stargate.boardsmessage.com
Admin
Commandant du USS Apollo
Commandant du USS Apollo
avatar

Masculin
Nombre de messages : 765
Age : 28
Localisation : SGC,Niveau 28,Burreau du Général
Compétence : 36
Date d'inscription : 26/05/2007

TEST
TEST: 50

MessageSujet: Re: Hebergement des Episode Stargate SG1 et Atlantis.   Mar 8 Jan - 0:32

Argh, en parlant de problème de merde, le format Aspet ratio des épisode sg1 sur dvd foirent, au début a la tv, c’était des 4:3, en DVD ils en ont fait des 16/9 mais apparemment, (je n'ai jamais eu ce problème avec les rip d'autre dvd 16/9) a la sortie de la conversion ca me fais du 4:3 ou 5:4, j'ai même forcé dans le codec lui même le ratio 16/9 mais ca ne change rien, par contre sous vlc si je change l’aspect ratio a 16/9 ca va niquel comme sur le dvd.

et en faite, pour moi inutile d'utiliser AVIDEMUX, j'ai retrouver un message que j'avais laissé sur clubic et je me souviens que tout ce qui est en codec AVC H264 sont complètement saccadé et que 3/4 des vidéo que je sortais avec ce programme était mal lisible sur 3/4 des lecteur vidéo (même paramètre même codecs sur virtuialdub et les vidéo était lisibles elles)

_________________
Revenir en haut Aller en bas
http://petit-stargate.boardsmessage.com
CCA
Sheriff du forum
Sheriff du forum


Nombre de messages : 1437
Compétence : 11
Date d'inscription : 12/11/2009

MessageSujet: Re: Hebergement des Episode Stargate SG1 et Atlantis.   Mar 8 Jan - 0:40

Oui mais depuis c'est la 2.6 avidemux qui supporte bien mieux les formats HD que sont les codec H264/X264.

donc au besoin, refaire un essai.

Attention parce que j'ai déjà vu du saccadé en pré-visualisation, mais une fois le fichier formaté alors il n'y avait plus ses saccades de pré-visualisation.



_________________
Stargate Universe - SGU  - Destiny - L'aventure continue
Revenir en haut Aller en bas
Admin
Commandant du USS Apollo
Commandant du USS Apollo
avatar

Masculin
Nombre de messages : 765
Age : 28
Localisation : SGC,Niveau 28,Burreau du Général
Compétence : 36
Date d'inscription : 26/05/2007

TEST
TEST: 50

MessageSujet: Re: Hebergement des Episode Stargate SG1 et Atlantis.   Mar 8 Jan - 10:44

J'ai convertit en VIRTUALDUB et modifié le format en 16/9 avec MkvMerge (sans convertir la vidéo, modifie seulement dans le fichier)

Voici la différence:

XVID:

H264:

Autre exemple sur le passage rapide devant un mur:

XVID:

H264:

on vois sur une seule image que légèrement la différence mais dans la vidéo il y as beaucoup moins de pixels

Conseil pour la lecture, le mieux est d'utiliser Media player classic, VLC ayant tendance a ne par respecter le V-sync (du coup vous pouvez avoir des déchirure verticale en lisant la vidéo) ceci exclus les lecteur de salon, cela ne s’appliquant généralement que aux lecture sur P. (cela dépend aussi du pc et de la configuration de la personne. ces problème de V-sync se voie souvent dans les jeux vidéo quand l'option n'est pas enclenché)
Qu'es-ce que le V-sync
Ceci s'applique aussi aux programme de lecture des jeux vidéo, media player classic comporte une option V-sync

MEDIA INFO sur le test Final de conversion d'épisode en H264:
Code:

General
Unique ID                                : 220819519781024907745343356249634252802 (0xA6204AE43D259842A25DEE4B1DC02802)
Complete name                            : G:\Stargate SG1 Saison 1 épisode 3 L’Ennemi intérieur (2).mkv
Format                                  : Matroska
Format version                          : Version 4 / Version 2
File size                                : 379 MiB
Duration                                : 42mn 24s
Overall bit rate                        : 1 249 Kbps
Encoded date                            : UTC 2010-02-22 21:41:31
Writing application                      : mkvmerge v5.9.0 ('On The Loose') built on Dec  9 2012 15:37:01
Writing library                          : libebml v1.3.0 + libmatroska v1.4.0

Video
ID                                      : 1
Format                                  : AVC
Format/Info                              : Advanced Video Codec
Format profile                          : High@L3.0
Format settings, CABAC                  : Yes
Format settings, ReFrames                : 5 frames
Muxing mode                              : Header stripping
Codec ID                                : V_MPEG4/ISO/AVC
Duration                                : 42mn 24s
Bit rate                                : 1 024 Kbps
Width                                    : 720 pixels
Height                                  : 576 pixels
Display aspect ratio                    : 16:9
Frame rate                              : 25.000 fps
Standard                                : PAL
Color space                              : YUV
Chroma subsampling                      : 4:2:0
Bit depth                                : 8 bits
Scan type                                : Progressive
Bits/(Pixel*Frame)                      : 0.099
Stream size                              : 303 MiB (80%)
Writing library                          : x264 core 125 r2200bm 999b753
Encoding settings                        : cabac=1 / ref=5 / deblock=1:0:0 / analyse=0x3:0x113 / me=umh / subme=8 / psy=1 / psy_rd=1.00:0.00 / mixed_ref=1 / me_range=16 / chroma_me=1 / trellis=1 / 8x8dct=1 / cqm=0 / deadzone=21,11 / fast_pskip=1 / chroma_qp_offset=-2 / threads=3 / lookahead_threads=1 / sliced_threads=0 / nr=0 / decimate=1 / interlaced=0 / bluray_compat=0 / constrained_intra=0 / bframes=3 / b_pyramid=2 / b_adapt=2 / b_bias=0 / direct=3 / weightb=1 / open_gop=0 / weightp=2 / keyint=250 / keyint_min=25 / scenecut=40 / intra_refresh=0 / rc_lookahead=50 / rc=2pass / mbtree=1 / bitrate=1024 / ratetol=1.0 / qcomp=0.60 / qpmin=0 / qpmax=69 / qpstep=4 / cplxblur=20.0 / qblur=0.5 / ip_ratio=1.40 / aq=1:1.00
Language                                : French
Default                                  : Yes
Forced                                  : No

Audio
ID                                      : 2
Format                                  : AC-3
Format/Info                              : Audio Coding 3
Format profile                          : Dolby Digital
Mode extension                          : CM (complete main)
Muxing mode                              : Header stripping
Codec ID                                : A_AC3
Duration                                : 42mn 24s
Bit rate mode                            : Constant
Bit rate                                : 224 Kbps
Channel(s)                              : 2 channels
Channel positions                        : Front: L R
Sampling rate                            : 48.0 KHz
Bit depth                                : 16 bits
Compression mode                        : Lossy
Stream size                              : 68.0 MiB (18%)
Language                                : French
Default                                  : Yes
Forced                                  : No


Comme vous pouvez le voire en comparant avec les autres media info précédent, celui ci est en 16/9 et la langue est maintenant marqué comme étant français (avant bien que la piste était en français sous media info c’était marqué anglais)

_________________
Revenir en haut Aller en bas
http://petit-stargate.boardsmessage.com
CCA
Sheriff du forum
Sheriff du forum


Nombre de messages : 1437
Compétence : 11
Date d'inscription : 12/11/2009

MessageSujet: Re: Hebergement des Episode Stargate SG1 et Atlantis.   Mar 8 Jan - 14:02

Le MKV permettant de multiple piste son, il est un peu normal que la langue soit précisé, cependant il existe un mode default, pour la langue. On peut donc créer un MKV, sans avoir la mention de la langue sur la piste son (fréquent quand on n'a qu'une seule piste son)

Sur tes DVD, le "default" est surement Anglais, d'où l'erreur sur l'autre fichier, inscrire anglais, alors qu'en fait la piste son utilisée, est la piste en français. Y a un numéro de flux pour chaque chose, un n° de flux pour la video, et un n° de flux pour chaque piste son.
C'est ton logiciel de rip qui s'est planté.

Par contre s'il n'y a qu'un ordinateur pour lire correctement tes video, c'est plutot embétant.
Un défaut d'aspect d'image sur une zone noire (ou d'une seule couleur), faisant de la pixelisation c'est assez fréquent. (je l'ai même déjà vu sur une diffusion TV )
Pire d'aprés toi, seul MediaPlayer le lit correctement.


_________________
Stargate Universe - SGU  - Destiny - L'aventure continue
Revenir en haut Aller en bas
Admin
Commandant du USS Apollo
Commandant du USS Apollo
avatar

Masculin
Nombre de messages : 765
Age : 28
Localisation : SGC,Niveau 28,Burreau du Général
Compétence : 36
Date d'inscription : 26/05/2007

TEST
TEST: 50

MessageSujet: Re: Hebergement des Episode Stargate SG1 et Atlantis.   Mar 8 Jan - 14:31

Citation :
Par contre s'il n'y a qu'un ordinateur pour lire correctement tes video, c'est plutot embétant.
Un défaut d'aspect d'image sur une zone noire (ou d'une seule couleur), faisant de la pixelisation c'est assez fréquent. (je l'ai même déjà vu sur une diffusion TV )
Pire d'aprés toi, seul MediaPlayer le lit correctement.

tu as mal compris, les lecteur lisent mieux cette vidéo que le pc.
et je dis que le mieux est de le lire avec Media player classic car il comporte un module V-Synch que certains autre player non pas, cela fait cette déchirure verticale sur toute les vidéo que je lis sur vlc sans exception (ou presque) alors que sur ma TV il n'y en as pas.

Je dis pas que cela marche pas, cela lis parfaitement (testé sur VLC, Divx player et Media Player classic) mais c'est juste un conseil pour ceux qui lirons ca depuis leurs pc, que si il y as des déchirures a l'horizontale, le mieux c'est de lire ca sur MPHC, ca se produit lors des déplacement rapide de la camera (balayage) ca se produit quand le lecteur emmet un nombre de FPS plus elevé que la Tv ne peut en recevoir, du coup ca il va recevoir l'image de la secondes suivante trop rapidement ce qui donc ces effet de coupures.

Dans ces chose la les vidéos sont hors de cause, c'est les lecteur et le pc, la vidéo n'as rien a voire las dedans.

moi j'ai ce model de tv:

http://www.lcd-compare.com/televiseur-PHI40PFL5806K-PHILIPS-40PFL5806K.htm
Citation :
Codecs Vidéo lus : MPEG1 • MPEG2 • MPEG4 • WMV9 • H.264 (MPEG4 AVC)
Codecs vidéo HD supportés
• Formats Vidéo lus : MPEG2-PS • MPEG2-TS • AVI • MKV
• Codecs Audio lus : MP3 • WMA • AAC • LPCM • PCM • AC3 (Dolby Digital) • HE-AAC

EDIT: je viens de tester le fichier pondu en .MKV par le programme, ma tv le lis parfaitement, bon sur un écran HD de la taille du mien ca parait de moins bonne qualité que sur le 20 pouce c'est claire mais c pas mauvais non plus, la qualité aurais été meilleure sans désentrelacement mais la c'est presque obligé

je peut toujours faire des tests sans désentrelacement si tu le souhaite?

_________________
Revenir en haut Aller en bas
http://petit-stargate.boardsmessage.com
Admin
Commandant du USS Apollo
Commandant du USS Apollo
avatar

Masculin
Nombre de messages : 765
Age : 28
Localisation : SGC,Niveau 28,Burreau du Général
Compétence : 36
Date d'inscription : 26/05/2007

TEST
TEST: 50

MessageSujet: Re: Hebergement des Episode Stargate SG1 et Atlantis.   Mar 8 Jan - 18:52

Ah, je viens de convertir le 1er épisode de la série, celui qui as été remastérise et recoupé comme un seul film, pour celui ci tu as 6 canaux audio apparemment.

l’épisode (donc les 2 premiers (enfants des dieux) fait 931mo

_________________
Revenir en haut Aller en bas
http://petit-stargate.boardsmessage.com
CCA
Sheriff du forum
Sheriff du forum


Nombre de messages : 1437
Compétence : 11
Date d'inscription : 12/11/2009

MessageSujet: Re: Hebergement des Episode Stargate SG1 et Atlantis.   Mar 8 Jan - 19:42

Ok ok, mais tu vois, c'était peut-etre pas très clair, parce que j'avais compris le contraire.



En même temps, les lecteurs, les TV, et les ordinateurs se débrouillent maintenant très bien tout seul, avec l'entrelacement, autrement dit, ils font le désentrelacement si c'est nécessaire. Donc tu peux faire l'essai, sans toucher à l'entrelacement initial.


?? je ne connaissais pas ce type de souci sur le FPS, en principe le FPS est fixe sur la plupart des video. Entre 24 et 30 fps et d'ailleurs il est déconseillé de changer le nombre de FPS de la video initiale.


Par contre, si tu peux éviter de produire en packed bitstream ? C'est mieux quand c'est unpacked parait-il.

_________________
Stargate Universe - SGU  - Destiny - L'aventure continue
Revenir en haut Aller en bas
Admin
Commandant du USS Apollo
Commandant du USS Apollo
avatar

Masculin
Nombre de messages : 765
Age : 28
Localisation : SGC,Niveau 28,Burreau du Général
Compétence : 36
Date d'inscription : 26/05/2007

TEST
TEST: 50

MessageSujet: Re: Hebergement des Episode Stargate SG1 et Atlantis.   Mar 8 Jan - 20:16

le problème apparait surtout avec VLC en fait, et si tu recherche sur internet V-synch VLC tu trouve beaucoup de post avec ce problème, et ils disent tous Lis avec Media player classic XD

je l'ai testé sur ma TV ca marche nique, je ferai un test sans dés-entrelacement pour voire, mais des fois ca ne fait pas de problème de dés-entrelacement sur toute les vidéo convertie (j'avais convertie tout les mc-gyver en divx sans dés-entrelacement et il y avait que un certain nombre de vidéo qui avait un problème. mais pas toutes

Citation :

Par contre, si tu peux éviter de produire en packed bitstream ? C'est mieux quand c'est unpacked parait-il.

Heuu la je peut pas te répondre,je sais pas a quoi ca touche dans le codec.

_________________
Revenir en haut Aller en bas
http://petit-stargate.boardsmessage.com
CCA
Sheriff du forum
Sheriff du forum


Nombre de messages : 1437
Compétence : 11
Date d'inscription : 12/11/2009

MessageSujet: Re: Hebergement des Episode Stargate SG1 et Atlantis.   Mar 8 Jan - 22:28

Ce serait bien de tester si tu en as chez toi ou chez des amis, le même fichier, sur un port USB de lecteur DVD ou de lecteur Blue-Ray ou de décodeur TNT afin de voir si cela marche aussi. Autre solution, pour avoir un éventail de matériels sur lesquels faire le test, c'est d'aller chez un marchand multi-marque en Audio-Visuel ou ayant un rayon audio-visuel.

_________________
Stargate Universe - SGU  - Destiny - L'aventure continue
Revenir en haut Aller en bas
Admin
Commandant du USS Apollo
Commandant du USS Apollo
avatar

Masculin
Nombre de messages : 765
Age : 28
Localisation : SGC,Niveau 28,Burreau du Général
Compétence : 36
Date d'inscription : 26/05/2007

TEST
TEST: 50

MessageSujet: Re: Hebergement des Episode Stargate SG1 et Atlantis.   Mar 8 Jan - 22:31

une des vidéo seras bientôt dispo au téléchargement, tu pourrais tester chez toi voire si ca fonctionne.

_________________
Revenir en haut Aller en bas
http://petit-stargate.boardsmessage.com
CCA
Sheriff du forum
Sheriff du forum


Nombre de messages : 1437
Compétence : 11
Date d'inscription : 12/11/2009

MessageSujet: Re: Hebergement des Episode Stargate SG1 et Atlantis.   Mer 9 Jan - 15:38

en mkv ou H264/X264, pas sur que je puisse lire facilement, le seul appareil succeptible d'en lire chez moi, c'est un décodeur TNT HD Akira.

_________________
Stargate Universe - SGU  - Destiny - L'aventure continue
Revenir en haut Aller en bas
CCA
Sheriff du forum
Sheriff du forum


Nombre de messages : 1437
Compétence : 11
Date d'inscription : 12/11/2009

MessageSujet: Re: Hebergement des Episode Stargate SG1 et Atlantis.   Ven 18 Jan - 22:29

Allez les membres du staffffffffffffffff, rouge, jaune ou vert, venez participer aux essais.

Voyez avec Admin, pour faire une récupération de MKV et de AVI, et tester les 2 fichiers, sur tous les ports USB matériels (TV, lecteur DVD, lecteur BlueRay, Passerelle TV, disque dur multimédia, mini home-cinema que vous pouvez avoir avec un port USB ), histoire de s'assurer que les fichiers sont compatibles avec un maximum de matériel.


Puisque la lecture par un PC/Mac, tablette, console, pose en général assez peu de probléme, avec une lecture logicielle.


Que je me tape pas tout le boulot comme d'hab avec Admin pour la mise au point...

_________________
Stargate Universe - SGU  - Destiny - L'aventure continue
Revenir en haut Aller en bas
Admin
Commandant du USS Apollo
Commandant du USS Apollo
avatar

Masculin
Nombre de messages : 765
Age : 28
Localisation : SGC,Niveau 28,Burreau du Général
Compétence : 36
Date d'inscription : 26/05/2007

TEST
TEST: 50

MessageSujet: Re: Hebergement des Episode Stargate SG1 et Atlantis.   Ven 18 Jan - 23:55

Citation :
Que je me tape pas tout le boulot comme d'hab avec Admin pour la mise au point...

Pour 3/4 c'est deja fait lol.

Mise a part, le matériel récent n'as pas l'aire d'avoir de problème pour lire les fichiers
(TV Panasonic, Samsung et Philips dernière génération) Pour ce qui est des autres appareil, je ne peut garantir, c'est pour cela que on cherche des "Testeurs" qui pourrais essayer de lire cs fichier sur vos appareil ou ceux de vos amis afin de tester si cela est correctement lisible.

Un prochain fichier en .Mkv et en .avi devrait bientôt être disponible pour le teste (modifié avec Mkvmerge comme vu avec CCA)

_________________
Revenir en haut Aller en bas
http://petit-stargate.boardsmessage.com
mario5102
Commandant du USS Prométhée
Commandant du USS Prométhée
avatar

Masculin
Nombre de messages : 1374
Age : 24
Localisation : Châlons en champagne
Compétence : 12
Date d'inscription : 15/11/2009

TEST
TEST: 50

MessageSujet: Re: Hebergement des Episode Stargate SG1 et Atlantis.   Sam 19 Jan - 3:14

sinon tu attendais ce soir voir ce que proposera le site mega ca serai peut etre moin compliqué enfin dessus il n'y aura peut etre pas de streaming. sinon pour le streaming j'ai une plate forme (ou tu gagne de l'argent ^^) c'est une plate forme qu'on utilise sur un site ou je suis actuellement ajouteur de film et serie. enfin la plateforme d'hebergement est entierement gratuite tu peut empoché tout les 100$ (un visionnage rapporte quelque centime)

fin jme suis ptet perdu dans le sujet Oo

_________________
avec mes p\'tit enfa appel a tout les membre Je crééer un jeu de type RPG, je recherche certain poste donc si vous avez des connaissance ou que vous voulez juste aidé (quelque soi vos connaissance ) allez sur la page aimez la et mp la page avec mes p\'tit enfa

Revenir en haut Aller en bas
http://stargatesgatlantis.forumactif.com
CCA
Sheriff du forum
Sheriff du forum


Nombre de messages : 1437
Compétence : 11
Date d'inscription : 12/11/2009

MessageSujet: Re: Hebergement des Episode Stargate SG1 et Atlantis.   Sam 19 Jan - 15:12

Ah oui, là tu t'es enfoncé dans la neige, y a que les cheveux qui dépassent Laughing


On a besoin de personnes pour tester non pas un hébergeur, mais les fichiers MKV et AVI, que ADMIN tentent de produire, en ajustant les différents réglages et options pour produire ces fichiers qui servent de tests.

Des tests de lecture de ces fichiers, sur des matériels et non pas des lecteurs "logiciels".

_________________
Stargate Universe - SGU  - Destiny - L'aventure continue
Revenir en haut Aller en bas
CCA
Sheriff du forum
Sheriff du forum


Nombre de messages : 1437
Compétence : 11
Date d'inscription : 12/11/2009

MessageSujet: Re: Hebergement des Episode Stargate SG1 et Atlantis.   Mar 22 Jan - 19:08

CCA a écrit:
Allez les membres du staffffffffffffffff, rouge, jaune ou vert, venez participer aux essais.

Voyez avec Admin, pour faire une récupération de MKV et de AVI, et tester les 2 fichiers, sur tous les ports USB matériels (TV, lecteur DVD, lecteur BlueRay, Passerelle TV, disque dur multimédia, mini home-cinema que vous pouvez avoir avec un port USB ), histoire de s'assurer que les fichiers sont compatibles avec un maximum de matériel.


Puisque la lecture par un PC/Mac, tablette, console, pose en général assez peu de probléme, avec une lecture logicielle.


Que je me tape pas tout le boulot comme d'hab avec Admin pour la mise au point...

Au nom des pouvoirs qui m'ont été conféré, vert, jaune et rouge, sont réquisitionnés d'office à l'insu de leur plein gré,

pour tester sur tous les matériels qu'ils ont, et qui sont munis d'un port USB afin de faire une lecture des fichiers en .MKV (H264/ISO/AVC + AC3 stéréo ou 5.1 Dolby ) et en .AVI (xvid + AC3 stéréo ou 5.1 Dolby ) selon que le son d'origine est juste en stéréo ou en Dolby 5.1

Les résolutions sont en 720x536, (mais directive de lecture 16/9)


Lire donc avec autre chose qu'un ordinateur/tablette/smartphone.
Pour signaler les incompatibilités, mais aussi les défauts éventuels de la numérisation.

Vous rapporterez à ADMIN vos essais, en précisant Marque/Modéle/Equipement sur lesquels vous avez testé.

Vous récupérerez auprés de ADMIN les fichiers pour les tester.

_________________
Stargate Universe - SGU  - Destiny - L'aventure continue
Revenir en haut Aller en bas
Admin
Commandant du USS Apollo
Commandant du USS Apollo
avatar

Masculin
Nombre de messages : 765
Age : 28
Localisation : SGC,Niveau 28,Burreau du Général
Compétence : 36
Date d'inscription : 26/05/2007

TEST
TEST: 50

MessageSujet: Re: Hebergement des Episode Stargate SG1 et Atlantis.   Mar 22 Jan - 20:30

Voici les liens a tester en question.

A savoir que ces fichiers sont la uniquement pour le test, ils seront supprimé des que toutes les réponse et question auront été faites.

MKV: http://www.jheberg.net/captcha/gWXsOy-stargate-sg1-saison-1-pisode-3-lennem

AVI: http://www.jheberg.net/captcha/L1YUKG-stargate-sg1-saison-1-pisode-3-lennem

Merci de tester et de me faire un compte rendu (comme décrit par CCA) soit sur le topic, soit par MP

Cordialement.

Admin.

_________________
Revenir en haut Aller en bas
http://petit-stargate.boardsmessage.com
mario5102
Commandant du USS Prométhée
Commandant du USS Prométhée
avatar

Masculin
Nombre de messages : 1374
Age : 24
Localisation : Châlons en champagne
Compétence : 12
Date d'inscription : 15/11/2009

TEST
TEST: 50

MessageSujet: Re: Hebergement des Episode Stargate SG1 et Atlantis.   Mer 23 Jan - 1:44

donc j'aurais juste a mettre les fichier sur ma clé usb la passé par exemple sur ma box qui lit les clé usb et dire si ca marche ou pas, je fait ca demain (sur ma bbox, ma xbox, j'ai une tablette tactile, je l'essayrai aussi dessus, je verrais avec ma soeur pour sa télé il me semble qu'elle fait usb. donc vous aurez ca dans la journée.

_________________
avec mes p\'tit enfa appel a tout les membre Je crééer un jeu de type RPG, je recherche certain poste donc si vous avez des connaissance ou que vous voulez juste aidé (quelque soi vos connaissance ) allez sur la page aimez la et mp la page avec mes p\'tit enfa

Revenir en haut Aller en bas
http://stargatesgatlantis.forumactif.com
CCA
Sheriff du forum
Sheriff du forum


Nombre de messages : 1437
Compétence : 11
Date d'inscription : 12/11/2009

MessageSujet: Re: Hebergement des Episode Stargate SG1 et Atlantis.   Mer 23 Jan - 18:08

Si tu veux sur ta tablette, mais avec les lecteurs logiciels, le + souvent c'est capable de lire n'importe quoi, même des formats bizarroides, donc c'est pas le plus probant comme test...
(en plus sur une tablette ou ordinateur, on peut faire un upgrade facilement du lecteur logiciel ou de ses codecs)

Ce sont les décodeurs matériels, que l'on trouve sur tous les matériels Audio-Visuel qui ont une prise USB et qui peuvent lire de la video, qu'il faut faire des essais.

Précisez marque/modéle/type (LG, LW4500, TV par exemple ).

décodeur TNT à prise USB, Lecteur DVD à prise USB, lecteur BlueRay à prise USB, TV à prise USB, mini home cinema à prise USB, passerelle TV à prise USB, disque dur multimédia avec prise USB.


Les fichiers sont le plus générique possible pour une reconnaissance par un maximum de décodeur matériel. (Les décodeurs matériels ne sont pas toujours évolutifs, ou des évolutions pas toujours disponible )


Si tu as la possibilité de passer dans un magasin Hifi-Video, pour tester sur plus de matériels, en prétextant un futur achat...

_________________
Stargate Universe - SGU  - Destiny - L'aventure continue
Revenir en haut Aller en bas
Contenu sponsorisé




MessageSujet: Re: Hebergement des Episode Stargate SG1 et Atlantis.   

Revenir en haut Aller en bas
 
Hebergement des Episode Stargate SG1 et Atlantis.
Voir le sujet précédent Voir le sujet suivant Revenir en haut 
Page 2 sur 4Aller à la page : Précédent  1, 2, 3, 4  Suivant
 Sujets similaires
-
» Stargate Atlantis - Divers montages - John/ Rodney - G
» Stargate et Stragate Atlantis
» COSTUME STARGATE SG-1
» le vaisseau prométhé stargate
» Tu n'es plus là (SGA)

Permission de ce forum:Vous ne pouvez pas répondre aux sujets dans ce forum
Le Petit Stargate :: les news du forum :: les news-
Sauter vers: