Le Petit Stargate

Ils peuvent nous ôter la vie... Mais ils ne nous ôteront jamais notre liberté. Tous les sites meurent un jour mais peu d'entre eux vivent vraiment. longue vie a toi Le Petit Stargate
 
AccueilFAQPortailCalendrierGalerieRechercherS'enregistrerConnexion
Avis A la population Stargateuse: Les téléchargements sont en cours de rétablissement sur différent hébergeurs, nous vous demandons donc un peu de patience, les premières saison de SG1 devrais voir le jour sous peu Wink Cordialement, ADMIN et toute l'équipe Petit-Stargate

Partagez | 
 

 Hebergement des Episode Stargate SG1 et Atlantis.

Voir le sujet précédent Voir le sujet suivant Aller en bas 
Aller à la page : Précédent  1, 2, 3, 4
AuteurMessage
CCA
Sheriff du forum
Sheriff du forum


Nombre de messages : 1437
Date d'inscription : 12/11/2009

MessageSujet: Re: Hebergement des Episode Stargate SG1 et Atlantis.   Lun 6 Mai - 14:25

Non c'est juste un petit logiciel gratuit, qui récupére les paramétres exacts d'un fichier, et te les affiche dans une fenetre, et te propose de les écrire dans un fichier texte pour si tu veux les sauvegarder.

Et une fois installé, il est présent "Média Info" dans le clic droit sur un nom de fichier qui ouvre un menu contextuel.


Dans le cas d'un fichier video, il te donne les paramétres au complet de ton fichier.
Certains outils, écrivent même qu'ils ont modifiés le fichier, avec les paramétres qu'ils ont appliqué, leur numéro de version. On peut alors savoir, que tel fichier video a été créé par tel logiciel. (virtualdub, memcoder, mkvmerge, dvdfab, fair wizard, etc etc )

Revenir en haut Aller en bas
Admin
Commandant du USS Apollo
Commandant du USS Apollo
avatar

Masculin
Nombre de messages : 765
Age : 28
Localisation : SGC,Niveau 28,Burreau du Général
Compétence : 36
Date d'inscription : 26/05/2007

TEST
TEST: 50

MessageSujet: Re: Hebergement des Episode Stargate SG1 et Atlantis.   Lun 3 Juin - 19:10

Salut a tous,

J'ai mis a jour mon codec H264/X264

Donc j'ai fait 2 fichiers (du même épisode)

J'aimerais que vous les testiez et me dire lequel des 2 fichier fonctionne le mieux et est de meilleures qualité.

jheberg.net/captcha/NuaQqm-stargate-sg1-saison-1-pisode-3-lennem

jheberg.net/captcha/NuaQqm-stargate-sg1-saison-1-pisode-3-lennem


Voici les media info:

Code:

General
Unique ID                                : 24424760985210828445416231648092366227 (0x126009B0F837FC1BD10BE98549262593)
Complete name                            : J:\Stargate SG1 Saison 1 épisode 3 L’Ennemi intérieur.mkv
Format                                  : Matroska
Format version                          : Version 1
File size                                : 380 MiB
Duration                                : 42mn 24s
Overall bit rate                        : 1 251 Kbps
Encoded date                            : UTC 2013-06-02 18:47:29
Writing application                      : VirtualDubMod 1.5.10.2 Fr | www.trad-fr.com ||  (build 2540/release)
Writing library                          : libebml-0.7.5 & libmatroska-0.7.7

Video
ID                                      : 1
Format                                  : AVC
Format/Info                              : Advanced Video Codec
Format profile                          : High@L4.0
Format settings, CABAC                  : Yes
Format settings, ReFrames                : 5 frames
Codec ID                                : V_MS/VFW/FOURCC / H264
Duration                                : 42mn 24s
Bit rate                                : 1 024 Kbps
Width                                    : 720 pixels
Height                                  : 576 pixels
Display aspect ratio                    : 5:4
Frame rate mode                          : Constant
Frame rate                              : 25.000 fps
Standard                                : PAL
Color space                              : YUV
Chroma subsampling                      : 4:2:0
Bit depth                                : 8 bits
Scan type                                : Progressive
Bits/(Pixel*Frame)                      : 0.099
Stream size                              : 304 MiB (80%)
Writing library                          : x264 core 130 r2274bm c832fe9
Encoding settings                        : cabac=1 / ref=5 / deblock=1:0:0 / analyse=0x3:0x113 / me=umh / subme=8 / psy=1 / psy_rd=1.00:0.00 / mixed_ref=1 / me_range=16 / chroma_me=1 / trellis=1 / 8x8dct=1 / cqm=0 / deadzone=21,11 / fast_pskip=1 / chroma_qp_offset=-2 / threads=3 / lookahead_threads=1 / sliced_threads=0 / nr=0 / decimate=1 / interlaced=0 / bluray_compat=0 / constrained_intra=0 / bframes=3 / b_pyramid=2 / b_adapt=2 / b_bias=0 / direct=3 / weightb=1 / open_gop=0 / weightp=2 / keyint=250 / keyint_min=25 / scenecut=40 / intra_refresh=0 / rc_lookahead=50 / rc=2pass / mbtree=1 / bitrate=1024 / ratetol=1.0 / qcomp=0.60 / qpmin=0 / qpmax=69 / qpstep=4 / cplxblur=20.0 / qblur=0.5 / ip_ratio=1.40 / aq=1:1.00
Language                                : English
Default                                  : Yes
Forced                                  : No

Audio
ID                                      : 2
Format                                  : AC-3
Format/Info                              : Audio Coding 3
Format profile                          : Dolby Digital
Mode extension                          : CM (complete main)
Format settings, Endianness              : Big
Codec ID                                : A_MS/ACM / 2000
Duration                                : 42mn 24s
Bit rate mode                            : Constant
Bit rate                                : 224 Kbps
Channel(s)                              : 2 channels
Channel positions                        : Front: L R
Sampling rate                            : 48.0 KHz
Bit depth                                : 16 bits
Compression mode                        : Lossy
Stream size                              : 68.0 MiB (18%)
Language                                : English
Default                                  : Yes
Forced                                  : No

Code:

General
Unique ID                                : 124769239130840575916665348329230060012 (0x5DDDAE6ECAB7E5DB0456022B92D849EC)
Complete name                            : J:\Stargate SG1 Saison 1 épisode 3 L’Ennemi intérieur sett2.mkv
Format                                  : Matroska
Format version                          : Version 1
File size                                : 380 MiB
Duration                                : 42mn 24s
Overall bit rate                        : 1 251 Kbps
Encoded date                            : UTC 2013-06-03 13:35:28
Writing application                      : VirtualDubMod 1.5.10.2 Fr | www.trad-fr.com ||  (build 2540/release)
Writing library                          : libebml-0.7.5 & libmatroska-0.7.7

Video
ID                                      : 1
Format                                  : AVC
Format/Info                              : Advanced Video Codec
Format profile                          : High@L4.0
Format settings, CABAC                  : Yes
Format settings, ReFrames                : 4 frames
Codec ID                                : V_MS/VFW/FOURCC / H264
Duration                                : 42mn 24s
Bit rate                                : 1 024 Kbps
Width                                    : 720 pixels
Height                                  : 576 pixels
Display aspect ratio                    : 5:4
Frame rate mode                          : Constant
Frame rate                              : 25.000 fps
Standard                                : PAL
Color space                              : YUV
Chroma subsampling                      : 4:2:0
Bit depth                                : 8 bits
Scan type                                : Progressive
Bits/(Pixel*Frame)                      : 0.099
Stream size                              : 304 MiB (80%)
Writing library                          : x264 core 130 r2274bm c832fe9
Encoding settings                        : cabac=1 / ref=3 / deblock=1:0:0 / analyse=0x3:0x113 / me=hex / subme=7 / psy=1 / psy_rd=1.00:0.00 / mixed_ref=1 / me_range=16 / chroma_me=1 / trellis=1 / 8x8dct=1 / cqm=0 / deadzone=21,11 / fast_pskip=1 / chroma_qp_offset=-2 / threads=3 / lookahead_threads=1 / sliced_threads=0 / nr=0 / decimate=1 / interlaced=0 / bluray_compat=0 / constrained_intra=0 / bframes=3 / b_pyramid=2 / b_adapt=1 / b_bias=0 / direct=1 / weightb=1 / open_gop=0 / weightp=2 / keyint=250 / keyint_min=25 / scenecut=40 / intra_refresh=0 / rc_lookahead=40 / rc=2pass / mbtree=1 / bitrate=1024 / ratetol=1.0 / qcomp=0.60 / qpmin=0 / qpmax=69 / qpstep=4 / cplxblur=20.0 / qblur=0.5 / ip_ratio=1.40 / aq=1:1.00
Language                                : English
Default                                  : Yes
Forced                                  : No

Audio
ID                                      : 2
Format                                  : AC-3
Format/Info                              : Audio Coding 3
Format profile                          : Dolby Digital
Mode extension                          : CM (complete main)
Format settings, Endianness              : Big
Codec ID                                : A_MS/ACM / 2000
Duration                                : 42mn 24s
Bit rate mode                            : Constant
Bit rate                                : 224 Kbps
Channel(s)                              : 2 channels
Channel positions                        : Front: L R
Sampling rate                            : 48.0 KHz
Bit depth                                : 16 bits
Compression mode                        : Lossy
Stream size                              : 68.0 MiB (18%)
Language                                : English
Default                                  : Yes
Forced                                  : No

Merci de tester, et ceux qui ont des grand écrans, testez niveau qualité et dites moi aussi si ca vous conviens comme qualité par rapport a la taille du fichier.

_________________
Revenir en haut Aller en bas
http://petit-stargate.boardsmessage.com
mario5102
Commandant du USS Prométhée
Commandant du USS Prométhée
avatar

Masculin
Nombre de messages : 1374
Age : 25
Localisation : Châlons en champagne
Compétence : 12
Date d'inscription : 15/11/2009

TEST
TEST: 50

MessageSujet: Re: Hebergement des Episode Stargate SG1 et Atlantis.   Mar 4 Juin - 21:31

je telecharge ca demain et je te dit ca.

_________________
avec mes p\'tit enfa appel a tout les membre Je crééer un jeu de type RPG, je recherche certain poste donc si vous avez des connaissance ou que vous voulez juste aidé (quelque soi vos connaissance ) allez sur la page aimez la et mp la page avec mes p\'tit enfa

Revenir en haut Aller en bas
http://stargatesgatlantis.forumactif.com
Admin
Commandant du USS Apollo
Commandant du USS Apollo
avatar

Masculin
Nombre de messages : 765
Age : 28
Localisation : SGC,Niveau 28,Burreau du Général
Compétence : 36
Date d'inscription : 26/05/2007

TEST
TEST: 50

MessageSujet: Re: Hebergement des Episode Stargate SG1 et Atlantis.   Mar 26 Nov - 19:22

J'ai refait un épisode, j'ai légèrement baissé la qualité audio (AC-3 224 Kbps à 192Kbps) et légèrement augmenté la qualité vidéo (1024kbps à 1128 kbps)

Vu que l'audio des DVD est du 2.1 (ou 2.0) je n'ai pas perçu de baisse de qualité audio.

la qualité vidéo est bonne même sur ma TV de 107Cm, de toute façon on regarde pas l'épisode le nez sur l'écran XD

voila ce que cela donne:

Code:
General
Complete name                            : C:\Users\THERMA CORP\Documents\Stargate Sg1 Saison 1 Episode 3 L'ennemi interieur.avi
Format                                  : AVI
Format/Info                              : Audio Video Interleave
File size                                : 403 MiB
Duration                                : 42mn 24s
Overall bit rate                        : 1 329 Kbps
Writing library                          : VirtualDub build 35491/release

Video
ID                                      : 0
Format                                  : AVC
Format/Info                              : Advanced Video Codec
Format profile                          : High@L4.1
Format settings, CABAC                  : Yes
Format settings, ReFrames                : 4 frames
Codec ID                                : H264
Duration                                : 42mn 24s
Bit rate                                : 1 128 Kbps
Width                                    : 720 pixels
Height                                  : 576 pixels
Display aspect ratio                    : 16:9
Frame rate                              : 25.000 fps
Standard                                : PAL
Color space                              : YUV
Chroma subsampling                      : 4:2:0
Bit depth                                : 8 bits
Scan type                                : Progressive
Bits/(Pixel*Frame)                      : 0.109
Stream size                              : 342 MiB (85%)
Writing library                          : x264 core 130 r2274bm c832fe9
Encoding settings                        : cabac=1 / ref=3 / deblock=1:0:0 / analyse=0x3:0x113 / me=hex / subme=7 / psy=1 / psy_rd=1.00:0.00 / mixed_ref=1 / me_range=16 / chroma_me=1 / trellis=1 / 8x8dct=1 / cqm=0 / deadzone=21,11 / fast_pskip=1 / chroma_qp_offset=-2 / threads=6 / lookahead_threads=1 / sliced_threads=0 / nr=0 / decimate=1 / interlaced=0 / bluray_compat=0 / constrained_intra=0 / bframes=3 / b_pyramid=2 / b_adapt=1 / b_bias=0 / direct=1 / weightb=1 / open_gop=0 / weightp=2 / keyint=250 / keyint_min=25 / scenecut=40 / intra_refresh=0 / rc_lookahead=40 / rc=2pass / mbtree=1 / bitrate=1128 / ratetol=1.0 / qcomp=0.60 / qpmin=0 / qpmax=69 / qpstep=4 / cplxblur=20.0 / qblur=0.5 / ip_ratio=1.40 / aq=1:1.00

Audio
ID                                      : 1
Format                                  : AC-3
Format/Info                              : Audio Coding 3
Mode extension                          : CM (complete main)
Format settings, Endianness              : Big
Codec ID                                : 2000
Duration                                : 42mn 24s
Bit rate mode                            : Constant
Bit rate                                : 192 Kbps
Channel(s)                              : 2 channels
Channel positions                        : Front: L R
Sampling rate                            : 48.0 KHz
Bit depth                                : 16 bits
Compression mode                        : Lossy
Stream size                              : 58.2 MiB (14%)
Alignment                                : Aligned on interleaves
Interleave, duration                    : 40 ms (1.00 video frame)
Interleave, preload duration            : 512 ms

J'ai profité pour forcer le 16/9 dans les paramètre X264 pour que cela s'affiche correctement.

J'ai pu lire le fichier sur ma TV Panasonic et une TV LG sans problème d'image ni de son, sur pc media player classic c'est niquel, sur VLC ça saccade, mais je pense que c'est du au réglage de la sortie vidéo (Direct 3D) a tester sur vos pc pour voir

_________________
Revenir en haut Aller en bas
http://petit-stargate.boardsmessage.com
mario5102
Commandant du USS Prométhée
Commandant du USS Prométhée
avatar

Masculin
Nombre de messages : 1374
Age : 25
Localisation : Châlons en champagne
Compétence : 12
Date d'inscription : 15/11/2009

TEST
TEST: 50

MessageSujet: Re: Hebergement des Episode Stargate SG1 et Atlantis.   Jeu 28 Nov - 9:58

ça a l'air pas mal meme si je comprend rien au code ^^'

_________________
avec mes p\'tit enfa appel a tout les membre Je crééer un jeu de type RPG, je recherche certain poste donc si vous avez des connaissance ou que vous voulez juste aidé (quelque soi vos connaissance ) allez sur la page aimez la et mp la page avec mes p\'tit enfa

Revenir en haut Aller en bas
http://stargatesgatlantis.forumactif.com
Admin
Commandant du USS Apollo
Commandant du USS Apollo
avatar

Masculin
Nombre de messages : 765
Age : 28
Localisation : SGC,Niveau 28,Burreau du Général
Compétence : 36
Date d'inscription : 26/05/2007

TEST
TEST: 50

MessageSujet: Re: Hebergement des Episode Stargate SG1 et Atlantis.   Jeu 28 Nov - 11:17

la j'ai déjà rippé toute la saison un dans ce format., donc 403-404Mo par épisodes, ca peut paraitre beaucoup mais le but était quand même d'avoir des fichiers avec un minimum de qualité qui peuvent être lue sur un écran de tv assez grand sans que ca soit trop moche.

_________________
Revenir en haut Aller en bas
http://petit-stargate.boardsmessage.com
CCA
Sheriff du forum
Sheriff du forum


Nombre de messages : 1437
Compétence : 11
Date d'inscription : 12/11/2009

MessageSujet: Re: Hebergement des Episode Stargate SG1 et Atlantis.   Jeu 28 Nov - 23:59

Si y a pas un lien, avec un endroit où tu as déposé le truc, tu peux pas voir Mario Surprised)

Toujours avec une vieille TV analogique pour moi... alors...

_________________
Stargate Universe - SGU  - Destiny - L'aventure continue
Revenir en haut Aller en bas
Admin
Commandant du USS Apollo
Commandant du USS Apollo
avatar

Masculin
Nombre de messages : 765
Age : 28
Localisation : SGC,Niveau 28,Burreau du Général
Compétence : 36
Date d'inscription : 26/05/2007

TEST
TEST: 50

MessageSujet: Re: Hebergement des Episode Stargate SG1 et Atlantis.   Ven 29 Nov - 0:42

J'ai ripé déjà toute la saison 1 (y compris l'épisode pilote) le plus long seras de placer ca en ligne XD

par contre si tu as une tv analogique, tu risque peut être d'avoir des problème si tu lit ca sur un écran qui est en 4:9 car j'ai configurer le fichier pour qu'il s'affiche en 16/9 (techniquement les fichiers sont marqué comme étant du 16/9 ainsi que sur le boitier des dvd) soit ta tv va l'afficher juste (avec les fameuse ligne noire en haut et en bas) soit tu auras une image carré mais la ca serais moche XD tout dépend du décodeur a mon avis

_________________
Revenir en haut Aller en bas
http://petit-stargate.boardsmessage.com
CCA
Sheriff du forum
Sheriff du forum


Nombre de messages : 1437
Compétence : 11
Date d'inscription : 12/11/2009

MessageSujet: Re: Hebergement des Episode Stargate SG1 et Atlantis.   Ven 29 Nov - 12:31

Je parie sur les bandes noires haut et bas. Le décodeur a plusieurs possibilité d'affichage : auto, ou alors fixe 4/3, 16/9, 4/3 pan/scan, 4/3 letter box

_________________
Stargate Universe - SGU  - Destiny - L'aventure continue
Revenir en haut Aller en bas
Admin
Commandant du USS Apollo
Commandant du USS Apollo
avatar

Masculin
Nombre de messages : 765
Age : 28
Localisation : SGC,Niveau 28,Burreau du Général
Compétence : 36
Date d'inscription : 26/05/2007

TEST
TEST: 50

MessageSujet: Re: Hebergement des Episode Stargate SG1 et Atlantis.   Jeu 5 Déc - 20:11

saison 1 et 2 en ligne, allez sur mon dernier post dans notre section destiné aux admins et modérateurs pour voir les infos Wink

_________________
Revenir en haut Aller en bas
http://petit-stargate.boardsmessage.com
CCA
Sheriff du forum
Sheriff du forum


Nombre de messages : 1437
Compétence : 11
Date d'inscription : 12/11/2009

MessageSujet: Re: Hebergement des Episode Stargate SG1 et Atlantis.   Ven 6 Déc - 23:29

Ok, et que souhaites tu en ce qui concerne l'ouverture aux membres du forum ??

_________________
Stargate Universe - SGU  - Destiny - L'aventure continue
Revenir en haut Aller en bas
Admin
Commandant du USS Apollo
Commandant du USS Apollo
avatar

Masculin
Nombre de messages : 765
Age : 28
Localisation : SGC,Niveau 28,Burreau du Général
Compétence : 36
Date d'inscription : 26/05/2007

TEST
TEST: 50

MessageSujet: Re: Hebergement des Episode Stargate SG1 et Atlantis.   Sam 7 Déc - 0:34

on peut leur mettre a disposition, c'est comme tu veux, tu as carte blanche, moi je m'occupe des les mettre en ligne dans la mesure du possible XD, tu peut voir les liens dans la section des dieux Wink

_________________
Revenir en haut Aller en bas
http://petit-stargate.boardsmessage.com
Contenu sponsorisé




MessageSujet: Re: Hebergement des Episode Stargate SG1 et Atlantis.   

Revenir en haut Aller en bas
 
Hebergement des Episode Stargate SG1 et Atlantis.
Voir le sujet précédent Voir le sujet suivant Revenir en haut 
Page 4 sur 4Aller à la page : Précédent  1, 2, 3, 4
 Sujets similaires
-
» Stargate Atlantis - Divers montages - John/ Rodney - G
» Stargate et Stragate Atlantis
» COSTUME STARGATE SG-1
» le vaisseau prométhé stargate
» Tu n'es plus là (SGA)

Permission de ce forum:Vous ne pouvez pas répondre aux sujets dans ce forum
Le Petit Stargate :: les news du forum :: les news-
Sauter vers: